Certains avi ne passe pas???

Résolu/Fermé
playerstf66 Messages postés 4 Date d'inscription mercredi 22 août 2018 Statut Membre Dernière intervention 26 août 2018 - Modifié le 22 août 2018 à 23:49
ziggourat Messages postés 24090 Date d'inscription dimanche 1 juillet 2007 Statut Contributeur Dernière intervention 25 janvier 2023 - 26 août 2018 à 00:33
Bonjour,

j'ai bien vue un post qui explique les complexités du .avi vue que mon lecteur dvd en lit certains et pas d'autres.
j'ai sorti les infos mais je ne voie pas le pourquoi l'un fonctionne et pas l'autre pouvez vous m’éclairer s'il vous plait?
deja coté lecteur c'est un LG LHB625 qui lit ces formats

Supports Acceptés :
BD-3D (Blu-Ray 3D) • BD-ROM (avec BD Live) • BD-R • BD-RE • DVD Vidéo • CD Audio
CDR • CDRW • DVD+R • DVD+RW • DVD-R • DVD-RW • DVD+R DL • DVD-R DL
Compatible Cinavia™ (sécurisation du contenu audio/vidéo)

Codecs Vidéo :
XviD • H.264 • WMV • MPEG-1 • MPEG-2 • MPEG-4
MPEG2 HD • H.264/AVC • H.264/MVC (3D) • VC-1 • AVCHD
Compatible vidéo 3D

Codecs Audio :
FLAC • LPCM • MP3 • OGG • PCM • WMA
Dolby Digital (AC3) • Dolby Digital Plus • Dolby TrueHD • DTS • DTS-HD • DTS HD Master Audio Essential


voila les infos d'un avi qui passe



Format : AVI
Format/Info : Audio Video Interleave
File size : 450 MiB
Duration : 56mn 23s
Overall bit rate : 1 117 Kbps
Writing application : Lavf57.25.100
Video
ID : 0
Format : MPEG-4 Visual
Format profile : Advanced Simple@L5
Format settings, BVOP : 2
Format settings, QPel : No
Format settings, GMC : No warppoints
Format settings, Matrix : Default (H.263)
Muxing mode : Packed bitstream
Codec ID : XVID
Codec ID/Hint : XviD
Duration : 56mn 23s
Bit rate : 976 Kbps
Width : 720 pixels
Height : 404 pixels
Display aspect ratio : 16:9
Frame rate : 23.976 fps
Color space : YUV
Chroma subsampling : 4:2:0
Bit depth : 8 bits
Scan type : Progressive
Compression mode : Lossy
Bits/(Pixel*Frame) : 0.140
Stream size : 394 MiB (87%)
Writing library : XviD 67
Audio
ID : 1
Format : MPEG Audio
Format version : Version 1
Format profile : Layer 3
Codec ID : 55
Codec ID/Hint : MP3
Duration : 56mn 23s
Bit rate mode : Constant
Bit rate : 128 Kbps
Channel(s) : 2 channels
Sampling rate : 48.0 KHz
Compression mode : Lossy
Stream size : 51.6 MiB (11%)
Alignment : Aligned on interleaves
Interleave, duration : 24 ms (0.58 video frame)
Interleave, preload duration : 24 ms
Writing library : LAME3.98.2


et un qui ne passe pas

Format : AVI
Format/Info : Audio Video Interleave
File size : 351 MiB
Duration : 44mn 50s
Overall bit rate : 1 093 Kbps
Writing application : Lavf57.25.100
Video
ID : 0
Format : MPEG-4 Visual
Format profile : Advanced Simple@L5
Format settings, BVOP : 2
Format settings, QPel : No
Format settings, GMC : No warppoints
Format settings, Matrix : Default (H.263)
Muxing mode : Packed bitstream
Codec ID : XVID
Codec ID/Hint : XviD
Duration : 44mn 50s
Bit rate : 952 Kbps
Width : 720 pixels
Height : 404 pixels
Display aspect ratio : 16:9
Frame rate : 25.000 fps
Color space : YUV
Chroma subsampling : 4:2:0
Bit depth : 8 bits
Scan type : Progressive
Compression mode : Lossy
Bits/(Pixel*Frame) : 0.131
Stream size : 305 MiB (87%)
Writing library : XviD 67
Audio
ID : 1
Format : MPEG Audio
Format version : Version 1
Format profile : Layer 3
Codec ID : 55
Codec ID/Hint : MP3
Duration : 44mn 50s
Bit rate mode : Constant
Bit rate : 128 Kbps
Channel(s) : 2 channels
Sampling rate : 48.0 KHz
Compression mode : Lossy
Stream size : 41.1 MiB (12%)
Alignment : Aligned on interleaves
Interleave, duration : 24 ms (0.60 video frame)
Interleave, preload duration : 24 ms
Writing library : LAME3.98.2


un grand merci a celui ou celle qui pourra m’éclairer car je comprend pas ;)

6 réponses

playerstf66 Messages postés 4 Date d'inscription mercredi 22 août 2018 Statut Membre Dernière intervention 26 août 2018 4
26 août 2018 à 00:10
j'ai pu tester ce soir et bingo!
un .avi avec un titre a rallonge des . des - et des [ ] j'ai juste renommer et ça passe nickel si ça peut servir a quelqu'un ^^

encore merci pour les infos j'en ai appris pas mal grâce a vous ;)
3
ziggourat Messages postés 24090 Date d'inscription dimanche 1 juillet 2007 Statut Contributeur Dernière intervention 25 janvier 2023 5 292
26 août 2018 à 00:33
Merci du retour ;)

Bonne continuation,
Tchao
0