Séparer un album en .flac ... sans le .cue ? [Résolu/Fermé]

Signaler
-
 DeadLugosi -
Bonjour,
j'ai téléchargé un album sur emule sous la forme d'un fichier flac produit par exact audio copy, d'ordinaire il faut un fichier cue pour séparer les pistes mais en l'occurrence, ne l'avant pas, je me résignait à la faire manuellement ou à supprimer le fichier si je trouvait un autre moyen d'obtenir cet album rare (no record du Nihilist Spasm Band, c'est vous dire), or j'ai finit par trouver un autre fichier (en mp3 celui là), et en voulant supprimer le flac j'ai vu dans la fenêtre de confirmation tout les titres etc des différentes chansons, je me suis alors rendu compte que le fichier avait un tag "cue sheet" contenant ceci :

REM GENRE Noise;
REM DATE 1967;
REM DISCID 390BB706;
REM COMMENT ExactAudioCopy v0.95b4;
PERFORMER "Nihilist Spasm Band";
TITLE "No Record";
REM REPLAYGAIN_ALBUM_GAIN +2.27 dB;
REM REPLAYGAIN_ALBUM_PEAK 0.992188;
FILE "Nihilist Spasm Band - No Record [cue-eac-flac-log].flac" WAVE;
TRACK 01 AUDIO;
TITLE "Destroy the Nations";
ISRC 000000000000;
REM REPLAYGAIN_TRACK_GAIN +0.70 dB;
REM REPLAYGAIN_TRACK_PEAK 0.700684;
INDEX 01 00:00:00;
TRACK 02 AUDIO;
TITLE "When in London Sleep at the York Hotel";
ISRC 000000000000;
REM REPLAYGAIN_TRACK_GAIN +2.05 dB;
REM REPLAYGAIN_TRACK_PEAK 0.789490;
INDEX 00 08:15:35;
INDEX 01 08:18:40;
TRACK 03 AUDIO;
TITLE "The Byron Bog";
ISRC 000000000000;
REM REPLAYGAIN_TRACK_GAIN +3.82 dB;
REM REPLAYGAIN_TRACK_PEAK 0.844971;
INDEX 00 13:14:50;
INDEX 01 13:18:10;
TRACK 04 AUDIO;
TITLE "Dog Face Man";
ISRC 000000000000;
REM REPLAYGAIN_TRACK_GAIN +1.82 dB;
REM REPLAYGAIN_TRACK_PEAK 0.623535;
INDEX 00 24:36:07;
INDEX 01 24:39:45;
TRACK 05 AUDIO;
TITLE "Oh Brian Dibb";
ISRC 000000000000;
REM REPLAYGAIN_TRACK_GAIN +3.65 dB;
REM REPLAYGAIN_TRACK_PEAK 0.992188;
INDEX 00 32:31:07;
INDEX 01 32:33:20;
TRACK 06 AUDIO;
TITLE "Destroy the Nations Again";
ISRC 000000000000;
REM REPLAYGAIN_TRACK_GAIN +3.47 dB;
REM REPLAYGAIN_TRACK_PEAK 0.515442;
INDEX 00 37:07:22;
INDEX 01 37:09:30;


Je l'ai copié/collé dans un fichier .cue grace à mon ami notepad et, hélas, notre cher EAC m'a répondu "error in cue sheet!".

Quelqu'un pourrait-il m'expliquer où se situe cette erreur (ou surement ces erreurs), qu'est ce qu'il faut que je fasse pour avoir un cue valide à partir des infos présents dans les tags ?

Merci d'avance

PS : après avoir observé quelques autres cue, celui ci parait vraiment different, cependant, je n'ai pu regarder que des cue d'albums que j'avais déjà séparé et ce ne sont pas les mêmes que les originaux. Il me semble déjà qu'il faut supprimer les point vigules, mais ce la ne suffit pas, peut-être réduire la quantité d'information aussi.

2 réponses

J'ajoute qu'un indentation est normalement présente, elle est seulement supprimée par le site
Après une longue recherche, j'ai trouvé dans mon disque dur un fichier cue avant coupage, ce qui m'a permis de modifier mon fichier pour obtenir ceci :

PERFORMER "Nihilist Spasm Band"
TITLE "No Record"
FILE "Nihilist Spasm Band - No Record.wav" WAVE
TRACK 01 AUDIO
TITLE "Destroy the Nations"
INDEX 01 00:00:00
TRACK 02 AUDIO
TITLE "When in London Sleep at the York Hotel"
INDEX 00 08:15:35
INDEX 01 08:18:40
TRACK 03 AUDIO
TITLE "The Byron Bog"
INDEX 00 13:14:50
INDEX 01 13:18:10
TRACK 04 AUDIO
TITLE "Dog Face Man"
INDEX 00 24:36:07
INDEX 01 24:39:45
TRACK 05 AUDIO
TITLE "Oh Brian Dibb"
INDEX 00 32:31:07
INDEX 01 32:33:20
TRACK 06 AUDIO
TITLE "Destroy the Nations Again"
INDEX 00 37:07:22
INDEX 01 37:09:30



et ça marche ! Personne n'aura donc eu à me répondre, j'espère par contre que ça pourra aider certains.