Fichier cue non supporté par daemon tools :-( [Résolu/Fermé]

Signaler
Messages postés
1162
Date d'inscription
mardi 25 août 2009
Statut
Membre
Dernière intervention
7 septembre 2019
-
Messages postés
1162
Date d'inscription
mardi 25 août 2009
Statut
Membre
Dernière intervention
7 septembre 2019
-
Bonjour à tous,

Alors voilà, j'ai téléchargé le dernier album de Rammstein en FLAC 96 kHz / 24 bits, en fait un RIP de vinyle.

Ah ! j'entends déjà dire, tu as téléchargé un album illégalement !

Donc je tiens à dire tout de suite que je possède le CD original, donc logiquement je dispose légalement du droit d'écouter l'album (enfin je crois :-S), deuxièmement je l'ai téléchargé sur un site public donc accessible à tous, que j'ai trouvé en faisant une recherche simplement sur Google.

Donc voilà, pour en revenir à mon problème, celui-ci est que j'ai 2 fichiers cue pour les infos des pistes, que je n'arrive pas à ouvrir, que ce soit avec PowerISO ou Daemon Tools.

Tout d'abord, voici la liste des fichiers du dossier :

- "Rammstein - Liebe Ist Fur Alle Da - Face A.flac"
- "Rammstein - Liebe Ist Fur Alle Da - Face B.flac"
- "Rammstein - Liebe Ist Fur Alle Da - Face C.flac"
- "Rammstein - Liebe Ist Fur Alle Da - Face D.flac"
- "Rammstein - Liebe Ist Fur Alle Da - FLAC.cue"
- "Rammstein - Liebe Ist Fur Alle Da - WAVE.cue"
- "Rammstein - Liebe Ist Fur Alle Da - Info.txt"
- "Rammstein - Liebe Ist Fur Alle Da - Poster.jpeg"
- "Rammstein - Liebe Ist Fur Alle Da - SVF.md5"

Il y a encore 2 dossier avec les covers et des analyses de spectres.

Maintenant voici le fichier "Rammstein - Liebe Ist Fur Alle Da - FLAC.cue" ouvert avec Wordpad :

REM GENRE "Industrial / Tanz Metal"
REM DATE 2009
REM COMMENT "Vinyl Rip 24/96 by SoL (solomon1981)"
PERFORMER "Rammstein"
TITLE "Liebe Ist Fur Alle Da (12'' Vinyl)"
FILE "Rammstein - Liebe Ist Fur Alle Da - Face A.flac" WAVE
TRACK 01 AUDIO
TITLE "Rammlied"
INDEX 01 00:00:00
TRACK 02 AUDIO
TITLE "Ich tu dir weh"
INDEX 01 05:16:00
TRACK 03 AUDIO
TITLE "Waidmanns Heil"
INDEX 01 10:19:00
FILE "Rammstein - Liebe Ist Fur Alle Da - Face B.flac" WAVE
TRACK 04 AUDIO
TITLE "Haifisch"
INDEX 01 00:00:00
TRACK 05 AUDIO
TITLE "B********"
INDEX 01 03:42:00
TRACK 06 AUDIO
TITLE "Fruhling in Paris"
INDEX 01 07:53:00
FILE "Rammstein - Liebe Ist Fur Alle Da - Face C.flac" WAVE
TRACK 07 AUDIO
TITLE "Wiener Blut"
INDEX 01 00:00:00
TRACK 08 AUDIO
TITLE "Pussy"
INDEX 01 03:51:00
TRACK 09 AUDIO
TITLE "Liebe Ist Fur Alle Da"
INDEX 01 07:48:00
FILE "Rammstein - Liebe Ist Fur Alle Da - Face D.flac" WAVE
TRACK 10 AUDIO
TITLE "Mehr"
INDEX 01 00:00:00
TRACK 11 AUDIO
TITLE "Roter Sand"
INDEX 01 04:10:00

Puis le fichier "Rammstein - Liebe Ist Fur Alle Da - WAVE.cue" :

REM GENRE "Industrial / Tanz Metal"
REM DATE 2009
REM COMMENT "Vinyl Rip 24/96 by SoL (solomon1981)"
PERFORMER "Rammstein"
TITLE "Liebe Ist Fur Alle Da (12'' Vinyl)"
FILE "Rammstein - Liebe Ist Fur Alle Da - Face A.wav" WAVE
TRACK 01 AUDIO
TITLE "Rammlied"
INDEX 01 00:00:00
TRACK 02 AUDIO
TITLE "Ich tu dir weh"
INDEX 01 05:16:00
TRACK 03 AUDIO
TITLE "Waidmanns Heil"
INDEX 01 10:19:00
FILE "Rammstein - Liebe Ist Fur Alle Da - Face B.wav" WAVE
TRACK 04 AUDIO
TITLE "Haifisch"
INDEX 01 00:00:00
TRACK 05 AUDIO
TITLE "B********"
INDEX 01 03:42:00
TRACK 06 AUDIO
TITLE "Fruhling in Paris"
INDEX 01 07:53:00
FILE "Rammstein - Liebe Ist Fur Alle Da - Face C.wav" WAVE
TRACK 07 AUDIO
TITLE "Wiener Blut"
INDEX 01 00:00:00
TRACK 08 AUDIO
TITLE "Pussy"
INDEX 01 03:51:00
TRACK 09 AUDIO
TITLE "Liebe Ist Fur Alle Da"
INDEX 01 07:48:00
FILE "Rammstein - Liebe Ist Fur Alle Da - Face D.wav" WAVE
TRACK 10 AUDIO
TITLE "Mehr"
INDEX 01 00:00:00
TRACK 11 AUDIO
TITLE "Roter Sand"
INDEX 01 04:10:00



Donc le problème c'est que quand je lance le 1er fichier cue, PowerISO me marque :
"G:\Rammstein - Liebe Ist Fur Alle Da (2LP Limited Edition) (2009) [12'' Vinyl 24-96]\Rammstein - Liebe Ist Fur Alle Da - Face A.flac

Erreur lors du décodage des fichiers musicaux."

Puis ensuite :

"G:\Rammstein - Liebe Ist Fur Alle Da (2LP Limited Edition) (2009) [12'' Vinyl 24-96]\Rammstein - Liebe Ist Fur Alle Da - FLAC.cue

Le format du fichier est non valide ou non supporté"




Et pour le fichier "Rammstein - Liebe Ist Fur Alle Da - WAVE.cue" il me marque simplement :

"G:\Rammstein - Liebe Ist Fur Alle Da (2LP Limited Edition) (2009) [12'' Vinyl 24-96]\Rammstein - Liebe Ist Fur Alle Da - WAVE.cue

Le format du fichier est non valide ou non supporté"




Bref, j'aimerais bien savoir où se situe l'erreur et aussi pourquoi il y a 2 fichier cue. Si quelqu'un pouvait m'aider ce serait vraiment cool :-)

Et sinon est-ce qu'il y aurait simplement un moyen de créer un autre fichier cue ?
Parce que ça m'arrangerait d'avoir le nom des pistes.

Merci de me répondre ;-)






4 réponses

Messages postés
1162
Date d'inscription
mardi 25 août 2009
Statut
Membre
Dernière intervention
7 septembre 2019
131
Personne pour m'aider :-( ?
Messages postés
1162
Date d'inscription
mardi 25 août 2009
Statut
Membre
Dernière intervention
7 septembre 2019
131
SVP !
Messages postés
1162
Date d'inscription
mardi 25 août 2009
Statut
Membre
Dernière intervention
7 septembre 2019
131
Merci pour la solidarité. Je sûr qu'il y en a qui savent.
Messages postés
1162
Date d'inscription
mardi 25 août 2009
Statut
Membre
Dernière intervention
7 septembre 2019
131
Aidez-moi quoi ! SVP !