Proteger un cd

[Résolu/Fermé]
Signaler
-
Messages postés
2
Date d'inscription
jeudi 23 juillet 2009
Statut
Membre
Dernière intervention
26 juillet 2009
-
salut tlm

stp je suis besoin de proteger mon cd de mariage contre le gravage je sais pas comment faire,si il y a un logiciel ou une autre methode par un mot de passe aide moi,

merci bien

5 réponses


voici un petit tuto que j'ai:
======

Voici une méthode qui permet de protéger un cd contre la copie:
méthode proposée avec CDRWIN (fonctionne avec nero et clonecd).
Lancer CDRWIN, créer une image du CD (nom_du_cd.bin). CDRWIN crée alors le fichier "nom_du_cd.cue".
Ouvrir le fichier avec le blocNotes, on voit:
FILE "C:\TEMP\NOM_DU_CD.BIN" BINARY
TRACK 01 MODE2/2352
INDEX 01 00:00:00

Traduction: fichier image binaire :nom_du_cd.bin, une piste data mode2 qui commence à 00:00:00 min. En fait pour protéger le cd on va rendre ce "".cue faux en faisant croire à CDRWIN qu'il ya une autre piste data.
Regarder la durée totale du disque. Si par exemple la durée est 32:36:12

FILE "C:\TEMP\NOM_DU_CD.BIN" BINARY
TRACK 01 MODE2/2352
INDEX 01 00:00:00
TRACK 02 MODE2/2352 <--"piste ajoutée"
INDEX 01 32:34:12 <--"on la fait commencer 2secondes de moins que le temps total".

Moi , je met 2 minutes et 2 secondes de moins. c'est à dire si la durée est de :
32:36:12, je met : 30:34:12

Voilà reste plus qu'à graver l'image en faisant un Load CueSheet et vous aurez un CD de 2 pistes Data Mode2.

Èvidemment Nero pourra copier le CD si l'on sélectionne le graveur en tant que lecteur. En tout cas la copie de votre CD sera limitée et les débutants n'arriveront pas à le graver!
(ça peut servir si vous vendez vos CD et que vous ne souhaitez pas de concurrence....)
===



3
Merci

Quelques mots de remerciements seront grandement appréciés. Ajouter un commentaire

CCM 42674 internautes nous ont dit merci ce mois-ci

salut gward,
dans ton message tu dis qu'on peut protèger "basiquement" un cd ou dvd avec cdrwin, mais crois tu qu'on peut faire de même avec nero?
excuse moi ...
comme je m y connais pas trop en informatique tu peu me rexplquer ca plus simplement stppppppppp

merciii bcp
j ai telecharger cdrwin 6.1 est c es pas un demo , j ai originale ;)
DIT moi comment je dois cree le nom et tt tt
mercii
Messages postés
19599
Date d'inscription
vendredi 28 décembre 2001
Statut
Modérateur
Dernière intervention
2 janvier 2020
3 568
Bonjour,

- Ne pas graver,
- Ne pas preter !

Aucune protection ne tient bien longtemps ; la preuve : toutes les protections de CD et DVD des fabricants sont contournées à terme.
Messages postés
340
Date d'inscription
samedi 5 juin 2004
Statut
Membre
Dernière intervention
20 mars 2007
85
Ne pas prêter, je suis moyennement d'accord (il doit avoir de la famille)
Mais ne pas graver? ... Non

Certes toutes les protections sont contournées, mais le fait qu'un keylogger passe ne pousse pas à abandonner tout firewall , antivirus et antispyware.
Messages postés
340
Date d'inscription
samedi 5 juin 2004
Statut
Membre
Dernière intervention
20 mars 2007
85
Bonsoir,
votre démonstration avec CDRWIN sur la protection des CD m'a
impressionné. Par contre, je n'arrive pas à créer un disque image.
Je tente de changer de lecteur avec un lecteur image, mais aucun enregistrement de fichier .bin ou .cue. Merci de m'indiquer la procédure pour créer ce fichier image.

excuses-moi, c'est avec "clonecd" que l'on peut faire la même chose. il suffit d'avoir un fichier ".cue" pour changer les valeurs.
amitiés

Messages postés
2
Date d'inscription
jeudi 23 juillet 2009
Statut
Membre
Dernière intervention
26 juillet 2009

bonjour,
ce site peut aider. http://www.webtoolmaster.com/fr/registermaker.htm
Un logiciel anticopie, et comment s'en servir tout dit dans se site. Bonne chance